BT猫

下载记录
当前位置:首页 > 电影 > 科幻片 >月球/月劫余生(港)
月球全集下载

月球

/月劫余生(港),寂寞月影,2009月球漫游
5.0
总评分: 3人评分 382人看过 影评

在线云播

BT种子

迅雷下载

中文字幕

温馨提示:[HD:高清版] [BD:高清无水印] [DVD:标准清晰版] [TS:抢先非清晰版] - 其中,BD和HD版本不太适合4M以下的宽带的用户和网速过慢的用户观看。
喜欢看"月球"的人也喜欢:
  • 点击播放《天使的眼睛》 完结 宣璐,王羽铮,杨奇鸣,王若麟,牟凤彬,骆达华,郑中玉,薛小冉
    0.0
    点击播放《黑霹雳 第三季》 完结 克莱斯·威廉斯
    0.5
    点击播放《小小乔》 完结 本·卫肖,艾米丽·比查姆,利安娜·贝斯特,菲尼克斯·布罗萨德,基特·康纳,琳赛·邓肯,凯瑞·福克斯,塞巴斯蒂安·胡克,戈兰·卡斯蒂克,大卫·威尔莫特,Jessie Mae Alonzo,Jason Cloud,Marie Noel,安德鲁·拉詹,Yana Yanezic
    6.5
    点击播放《最爱女人RPG》 完结 薛仕凌,林辰唏,赖琳恩,林彦君
    0.0
    点击播放《河妖》 完结 林子聪,徐冬冬,刘頔,陈丽玲
    0.0
    点击播放《无限之住人 重制版》 完结 津田健次郎,佐仓绫音,佐佐木望,铃木达央,花轮英司,咲野俊介,桑岛法子,福松进纱
    6.9
  • 点击播放《御天神兽》 完结 张冰倩,张子文,李子雄
    0.0
    点击播放《鸟类学家》 完结 若昂·佩德罗·罗德里格斯,保罗·艾米,温菡
    6.3
    点击播放《勇敢者游戏2》 完结 道恩·强森,凯伦·吉兰,凯文·哈特,杰克·布莱克,奥卡菲娜,麦迪森·伊瑟曼,丹尼·德维托,亚历克斯·沃尔夫,尼克·乔纳斯,丹尼·格洛弗,摩根·特纳,瑟达吕斯·布兰,萨尔·隆戈巴尔多
    5.8
    点击播放《秀逗魔导士Premium》 完结 林原惠美,松本保典,绿川光,铃木真仁,石田彰,川村万梨阿,田之中勇,樱井孝宏,小岛一成,木村雅史 ,白鸟由里,纳谷悟朗
    8.5
    点击播放《虚拟革命》 完结 麦克·多普德,简·巴德勒,约亨·海格勒,马克西米安·鲍林,卡雅·布洛克萨奇,佩特拉·西兰德,尼古拉斯·范·贝弗伦,埃利·哈达德,艾米里·德·法尔科,埃里克·凯利,佐伊·科拉菲斯,梅丽莎·玛斯
    6.3
    点击播放《悄然之星》 完结 神乐坂惠,远藤贤司,池田优斗,森康子
    6.7
  • 点击播放《泰迦奥特曼》 完结 井上祐贵,新山千春,谅泰罗,吉永亚由里,七濑公,寺岛拓笃,日野聪,叶山翔太,内田雄马,小野大辅
    8.9
    点击播放《星际探索》 完结 布拉德·皮特,汤米·李·琼斯,鲁丝·内伽,唐纳德·萨瑟兰,丽芙·泰勒,肖恩·布莱克默,约翰·芬,杰米·肯尼迪,格雷格·布瑞克,吉米·希尔兹,丽莎·盖伊·汉密尔顿,劳恩·迪恩,约翰·奥提兹,金伯莉·伊丽丝,丹尼尔·萨乌利,安妮·麦克代尼尔斯,艾莉森·瑞德,唐尼·科沙瓦茨,马洛里露,希拉·M·洛克哈特
    7.2
    点击播放《迪亚曼蒂诺》 完结 卡里托·科塔
    5.8
    点击播放《虚拟现实战》 完结 帕克·索耶,查尔斯·欧比,莫菲德·克拉克,马克斯·迪肯,汤姆·本尼迪克·奈特,艾德里安娜·兰达尔,阿里·库克,迪诺·法赞尼,马尔科姆·莫德乐,格雷戈·科尔帕克奇,克里斯·库斯克,斯图尔特·麦克尼尔
    5.3
    点击播放《无重力男子》 完结 Elio Germano,Michela Cescon,Silvia D'Amico
    0.0
    点击播放《爱情诅咒》 完结 张优,赵思,王德枫,裴紫绮
    0.0
  • 点击播放《超智能恋爱》 完结 森川葵,上杉柊平,中村安奈,石田明,斋藤工
    6.6
    点击播放《死亡空间:余波》 完结 Christopher Judge
    6.8
    点击播放《四大神兽外传》 完结 王维,葛兆正,孙荧
    1.8
    点击播放《入侵脑细胞》 完结 詹妮弗·洛佩兹,文斯·沃恩,文森特·多诺费奥,玛丽安娜·琼-巴普蒂斯特
    7.4
    点击播放《碧血苍穹》 完结 孙耀威,牛丽燕,宋晨,王美心
    4.1
    点击播放《终结者:黑暗命运》 完结 阿诺·施瓦辛格,琳达·汉密尔顿,麦肯兹·戴维斯,娜塔利娅·雷耶斯,加布里埃尔·鲁纳,迪耶戈·博内塔,恩里克·阿尔切,特里斯坦·乌罗阿,艾丽西娅·博拉切罗,爱德华·福隆,布雷特·阿扎尔,史蒂芬·克里,罗谢尔·尼尔,弗雷泽·杰姆斯,克劳迪娅·特鲁希略,比约恩·弗赖贝格,约翰·盖蒂尔,彼得·奥蒙德,洛娜·布朗,彼得·舒勒
    6.5
月球》剧情介绍:
未来世界,随着科技的飞速进步,地球的污染也越来越严重。为了遏制这种现状,一家名为月能工业有限公司的企业应运而生。该公司致力于月球能源的开发,通过采集氦-3来满足地球对能源的需求。月能公司在月球设有基地,山姆·贝尔(山姆·洛克威尔 Sam Rockwell 饰)正是该基地 上唯一的工作人员。山姆是公司聘用的合同工,他已在月球孤零零地生活3年,陪伴他的只有智能机器人戈蒂(凯文·斯派西 Kevin Spacey 饰)。枯燥乏味的生活令山姆归心似箭,在还有两周就离开月球的时候,山姆偶然遭遇一起事故。醒来后的他发现戈蒂似乎对其有所隐瞒,公司高层也拒绝他的回程请求。山姆借机逃出基地,却在事故发生地点发现另一个自己……

  本片荣获2009年爱丁堡国际电影节最佳英国影片奖、2009年西雅图国际电影节最佳男主角奖。

Moon.2009.1080p.BluRay.x264.DTS-FGT

◎译  名 月球/月劫余生(港)/寂寞月影/2009月球漫游/月亮

◎片  名 Moon

◎年  代 2009

◎国  家 英国

◎类  别 剧情/悬疑/科幻

◎语  言 英语/西班牙语

◎上映日期 2009-07-17

◎IMDb评分  8.0/10 from 231,771 users

◎IMDb链接  http://www.imdb.com/title/tt1182345/

◎豆瓣评分 8.5/10 from 100,851 users

◎豆瓣链接 http://movie.douban.com/subject/3073124/

◎片  长 97 分钟

◎导  演 邓肯·琼斯 Duncan Jones

◎主  演 山姆·洛克威尔 Sam Rockwell

      凯文·史派西 Kevin Spacey

      多米妮克·麦克艾丽戈特 Dominique McElligott

      卡雅·斯考达里奥 Kaya Scodelario

      马特·贝里 Matt Berry

      罗宾·查克 Robin Chalk

◎简  介

  未来世界,随着科技的飞速进步,地球的污染也越来越严重。为了遏制这种现状,一家名为月能工业有限公司的企业应运而生。该公司致力于月球能源的开发,通过采集氦-3来满足地球对能源的需求。月能公司在月球设有基地,山姆·贝尔(山姆·洛克威尔 Sam Rockwell 饰)正是该基地 上唯一的工作人员。山姆是公司聘用的合同工,他已在月球孤零零地生活3年,陪伴他的只有智能机器人戈蒂(凯文·斯派西 Kevin Spacey 饰)。枯燥乏味的生活令山姆归心似箭,在还有两周就离开月球的时候,山姆偶然遭遇一起事故。醒来后的他发现戈蒂似乎对其有所隐瞒,公司高层也拒绝他的回程请求。山姆借机逃出基地,却在事故发生地点发现另一个自己……

  本片荣获2009年爱丁堡国际电影节最佳英国影片奖、2009年西雅图国际电影节最佳男主角奖。

◎获奖情况

  第22届芝加哥影评人协会奖 (2009)

  最具潜力导演(提名) 邓肯·琼斯

  第9届凤凰城影评人协会奖 (2009)

  年度被忽略影片

Video
ID                                       : 1
Format                                   : AVC
Format/Info                              : Advanced Video Codec
Format profile                           : [email protected]
Format settings, CABAC                   : Yes
Format settings, ReFrames                : 5 frames
Codec ID                                 : V_MPEG4/ISO/AVC
Duration                                 : 1h 37mn
Bit rate                                 : 11.2 Mbps
Width                                    : 1 920 pixels
Height                                   : 800 pixels
Display aspect ratio                     : 2.40:1
Frame rate mode                          : Constant
Frame rate                               : 23.976 fps
Color space                              : YUV
Chroma subsampling                       : 4:2:0
Bit depth                                : 8 bits
Scan type                                : Progressive
Bits/(Pixel*Frame)                       : 0.304
Stream size                              : 7.43 GiB (92%)
Writing library                          : x264 core 68 r1179M 96e2229
Encoding settings                        : cabac=1 / ref=5 / deblock=1:-3:-3 / analyse=0x3:0x133 / me=umh / subme=9 / psy_rd=0.9:0.0 / mixed_ref=1 / me_range=32 / chroma_me=1 / trellis=2 / 8x8dct=1 / cqm=0 / deadzone=21,11 / chroma_qp_offset=-2 / threads=12 / nr=0 / decimate=1 / mbaff=0 / bframes=6 / b_pyramid=1 / b_adapt=2 / b_bias=0 / direct=1 / wpredb=1 / keyint=250 / keyint_min=25 / scenecut=40 / rc=2pass / bitrate=11187 / ratetol=1.0 / qcomp=0.60 / qpmin=10 / qpmax=51 / qpstep=4 / cplxblur=20.0 / qblur=0.5 / vbv_maxrate=50000 / vbv_bufsize=50000 / ip_ratio=1.40 / pb_ratio=1.30 / aq=1:0.90
Language                                 : English
Default                                  : Yes
Forced                                   : No

Audio
ID                                       : 2
Format                                   : DTS
Format/Info                              : Digital Theater Systems
Mode                                     : 16
Format settings, Endianness              : Big
Codec ID                                 : A_DTS
Duration                                 : 1h 37mn
Bit rate mode                            : Constant
Bit rate                                 : 755 Kbps
Channel(s)                               : 6 channels
Channel positions                        : Front: L C R, Side: L R, LFE
Sampling rate                            : 48.0 KHz
Bit depth                                : 24 bits
Compression mode                         : Lossy
Stream size                              : 524 MiB (6%)
Language                                 : English
Default                                  : Yes
Forced                                   : No

Text
ID                                       : 3
Format                                   : ASS
Codec ID                                 : S_TEXT/ASS
Codec ID/Info                            : Advanced Sub Station Alpha
Compression mode                         : Lossless
Language                                 : English
Default                                  : No
Forced                                   : No



温馨提示:您正在浏览的"《月球》"的剧情介绍来自于[BT猫-www.btmao.cc],如果您喜欢本站,请推荐给您的朋友,谢谢您的支持! 最后更新:

影片评论:

游客 2019-11-26
Sam应该把基地里的所有克隆人都激活,然后……《克隆人的进攻》


游客 2019-11-26
真正的末世情怀不是什么传奇,而是举杯邀明月对影成三人的孤独。


游客 2019-11-26
你问我孤独有多深 月亮代表我的心


游客 2019-11-26
真正的孤独是别人根本不知道你的存在, 而你一直以为你在他们之中。


收藏 留言 返回顶部