BT猫

下载记录
当前位置:首页 > 电影 > 恐怖片 >蜂螫/刺伤
蜂螫全集下载

蜂螫

/刺伤
5.0
总评分: 38人评分 509人看过 影评

在线云播

迅雷下载

温馨提示:[HD:高清版] [BD:高清无水印] [DVD:标准清晰版] [TS:抢先非清晰版] - 其中,BD和HD版本不太适合4M以下的宽带的用户和网速过慢的用户观看。
喜欢看"蜂螫"的人也喜欢:
  • 点击播放《后窗》 完结 詹姆斯·斯图尔特,格蕾丝·凯利,温戴尔·柯瑞,瑟尔玛·瑞特,雷蒙德·布尔
    8.5
    点击播放《大卫·戈尔的一生》 完结 凯文·史派西,凯特·温丝莱特,劳拉·琳妮,加布里埃尔·曼,梅丽莎·麦卡西,罗娜·迈特拉
    8.7
    点击播放《神秘群岛》 完结 黛米·摩尔,Therese Bradley,詹姆斯·卡沙莫,汉斯·麦瑟逊,Joanna Hole,亨利·伊安·库斯克
    6.6
    点击播放《博格曼》 完结 扬·贝弗特,哈德维奇·米尼斯,杰罗恩·佩瑟瓦尔,亚历斯·冯·华麦丹,汤姆·德威斯布莱尔,莎拉·约尔特·蒂特莱芙瑟,安妮特·马尔赫毕
    7.0
    点击播放《黑暗之家》 完结 Arkadiusz Jakubik,Marian Dziedziel,Kinga Preis,Bartlomiej Topa,Katarzyna Cynke,Robert Wabich,Robert Wieckiewicz,Krzysztof Czeczot,Eryk Lubos,Lech Dyblik,Marcin Juchniewicz,Bartosz3e Zukowski,Grzegorz Wojdon,Slawomir Orzechowski,Anna Grzeszczak
    7.5
    点击播放《龙道 双面复仇者》 完结 玉木宏,高桥一生,松本穗香,远藤宪一,齐藤由贵,细田善彦,松本真里香,奈绪,今野浩喜,渡边邦斗,西乡辉彦
    0.0
  • 点击播放《夜归人之1号嫌疑犯》 完结 银雪,许敏,张纬驰,梁笑,张佳琳,李志文,孟婕,建康,洛嘉,吴东键
    0.0
    点击播放《林中小屋》 完结 王宗尧,李昕岳,杜奕衡,雨侨,魏玉海,石咏莉,谷尚蔚,裴殷
    2.8
    点击播放《猫胆虫威》 完结 凯文·哈特,娜塔莉·伊曼纽尔,约翰·特拉沃尔塔,乔什·哈奈特,让·雷诺,米拉娜·薇恩翠,Kenneth Trujillo,Stephan Jones
    0.0
    点击播放《洛城疑云》 完结 大卫·杜楚尼,安吉丽娜·朱莉,蒂莫西·赫顿
    5.6
    点击播放《宿敌》 完结 杰克·吉伦哈尔,梅拉尼·罗兰,莎拉·加顿,伊莎贝拉·罗西里尼
    6.9
    点击播放《迷毒之天命圈》 完结 梅洋,黄山,李坤,麦文杰
    0.0
  • 点击播放《恶魔的艺术》 完结 缇恰·翁迪普卡侬,陈瑞书,娜露潘格慕·柴辛,王敏成,瓦鲁特·查瓦力朱吉翁,诺帕努·甘塔柴
    0.0
    点击播放《末日巡逻队 第二季》 完结 提摩西·道尔顿,黛安·格雷罗,艾普尔·鲍白,阿比盖尔·夏皮罗,马特·波莫,布兰登·费舍,赖利·沙纳汉,凯瑟琳·卡兰,迈克尔·哈尔尼,艾伦·图代克,马修·祖克
    3.2
    点击播放《104号房间 第四季》 完结 Christopher Farrar,丝凯拉·格雷,Susanna Harter,丽贝卡·哈泽伍德,Talulah Shadrick,Terrence Terrell
    2.5
    点击播放《新版降头女王》 完结 汉娜·阿尔·拉希德,Ario Bayu,Adhisty Zara,Ari Irham,Muzakki Ramdhan,Sheila Dara Aisha,卜提·阿尤蒂雅,Shenina Cinnamon,Salvita Decorte,Tanta Ginting,Ade Firman Hakim,Miller Khan,Ruth Marini,Giulio Parengkuan,Imelda Therinne,Yayu A.W. Unru
    5.9
    点击播放《神秘拼图》 完结 丹泽尔·华盛顿,安吉丽娜·朱莉,奎恩·拉提法,迈克尔·鲁克,迈克·麦格隆
    7.3
    点击播放《仇敌当前》 完结 尚格·云顿,汤姆·艾弗瑞特·斯科特,奥兰多·琼斯,琳赛·寇克,阿塔纳斯·斯雷布雷夫,Jonas Talkington
    4.7
  • 点击播放《青年警察:午夜跑者》 完结 中岛健人,平野紫耀,吉濑美智子,伊势谷友介,大幡诗绘理,叶山奖之,竹内爱纱,传谷英里香,中村友理,原田泰造,真木阳子,东根作寿英,片冈礼子,铃木梨央,上白石萌音,加藤雅也
    5.0
    点击播放《地狱女子》 完结 塔拉·巴斯罗,Ario Bayu,Marissa Anita,克里斯汀·哈金,阿斯马拉·阿比盖尔,Kiki Narendra,Zidni Hakim,Faradina Mufti,Abdurrahman Arif,Muhammad Abe Baasyin,Mursiyanto,Ahmad Ramadhan,Aura Agna,Sindris Ogiska G.,Devona Queeny,Teuku Rifnu Wikana
    0.0
    点击播放《租房惊魂》 完结 丹·史蒂文斯,爱丽森·布里,希拉·凡德,杰瑞米·艾伦·怀特,托比·哈斯,Connie Wellman,Chunk
    5.2
    点击播放《阿琳娜》 完结 Amalia Holm,Molly Nutley,Felice Jankell,Rebecka Nyman,Malin Persson
    0.0
    点击播放《沉默》 完结 安娜贝拉·沃丽丝,扎恩·迈克拉农,赫洛·费因斯-提芬,尼古拉·科斯特-瓦尔道,梅兰妮·斯科洛凡诺,Josh Cruddas,Brielle Robillard,Danielle Ryan,Kayla Dumont,Heather Stevenson,肖恩·史密斯,莎农·卡诺瓦斯,夏洛特·林赛·马荣,Justin James Remeikis,Bart Rochon
    6.1
蜂螫》剧情介绍:

◎译  名 蜂螫/刺伤
◎片  名 Stung
◎年  代 2015
◎国  家 美国
◎类  别 惊悚/恐怖
◎语  言 英语
◎上映日期 2015-08-07(土耳其)
◎IMDb评分  5.0/10 from 1,517 users
◎IMDb链接  http://www.imdb.com/title/tt3300572/
◎豆瓣评分 5.2/10 from 167 users
◎豆瓣链接 http://movie.douban.com/subject/26348600/
◎片  长 90分钟
◎导  演 Benni Diez
◎主  演 兰斯·亨利克森 Lance Henriksen
      Clifton Daniel
      马特·欧莱瑞 Matt O'Leary
      Jessica Cook

◎简  介

  一辆货车行驶在泥泞的乡间小路上,酒保保罗(马特·欧莱瑞 Matt O'Leary 饰)和派对组织者茱莉娅(Jessica Cook 饰)正前往他们的目的地,某个山间别墅。别墅所有人波奇妇人(Eve Slatner 饰)每年都会组织派对,请来至交亲朋共同缅怀她去世的丈夫。晴朗的午后,保罗他们有条不紊地布置会场,除了不知从何处而来的马蜂比较讨厌外,其他还都顺利。夜幕降临,宾客相继来到别墅庭院,大家共斟美酒,喜形于色。而就在此时,诡异疯狂的麻风再次出现,它们肆无忌惮袭击在场的每个人,被袭击者受到感染,体内很快诞生出巨大的马蜂怪。
  人们一个接一个倒下,而无情冷酷的杀手正向为数不多的幸存者们逼近……


Video
ID                                       : 1
Format                                   : AVC
Format/Info                              : Advanced Video Codec
Format profile                           : [email protected]
Format settings, CABAC                   : Yes
Format settings, ReFrames                : 4 frames
Codec ID                                 : V_MPEG4/ISO/AVC
Duration                                 : 1h 27mn
Bit rate                                 : 8 612 Kbps
Width                                    : 1 920 pixels
Height                                   : 800 pixels
Display aspect ratio                     : 2.40:1
Frame rate mode                          : Constant
Frame rate                               : 23.976 fps
Color space                              : YUV
Chroma subsampling                       : 4:2:0
Bit depth                                : 8 bits
Scan type                                : Progressive
Bits/(Pixel*Frame)                       : 0.234
Stream size                              : 5.24 GiB (83%)
Writing library                          : x264 core 142 r2431+42 c69a006 tMod [[email protected]:2:0 X86_64]
Encoding settings                        : cabac=1 / ref=4 / deblock=1:-3:-3 / analyse=0x3:0x113 / me=umh / subme=11 / psy=1 / fade_compensate=0.00 / psy_rd=1.00:0.05 / mixed_ref=1 / me_range=48 / chroma_me=1 / trellis=2 / 8x8dct=1 / cqm=0 / deadzone=21,11 / fast_pskip=0 / chroma_qp_offset=-2 / threads=12 / lookahead_threads=2 / sliced_threads=0 / nr=0 / decimate=1 / interlaced=0 / bluray_compat=0 / constrained_intra=0 / fgo=0 / bframes=8 / b_pyramid=2 / b_adapt=2 / b_bias=0 / direct=3 / weightb=1 / open_gop=0 / weightp=2 / keyint=250 / keyint_min=23 / scenecut=40 / intra_refresh=0 / rc_lookahead=40 / rc=crf / mbtree=0 / crf=19.5000 / qcomp=0.60 / qpmin=0:0:0 / qpmax=69:69:69 / qpstep=4 / vbv_maxrate=50000 / vbv_bufsize=45000 / crf_max=0.0 / nal_hrd=none / filler=0 / ip_ratio=1.40 / pb_ratio=1.30 / aq=3:1.00 / aq-sensitivity=10.00 / aq-factor=1.00:1.00:1.00 / aq2=0 / aq3=0
Language                                 : English
Default                                  : Yes
Forced                                   : No
Color range                              : Limited
Matrix coefficients                      : BT.709

Audio
ID                                       : 2
Format                                   : DTS
Format/Info                              : Digital Theater Systems
Mode                                     : 16
Format settings, Endianness              : Big
Codec ID                                 : A_DTS
Duration                                 : 1h 27mn
Bit rate mode                            : Constant
Bit rate                                 : 1 509 Kbps
Channel(s)                               : 6 channels
Channel positions                        : Front: L C R, Side: L R, LFE
Sampling rate                            : 48.0 KHz
Bit depth                                : 24 bits
Compression mode                         : Lossy
Stream size                              : 940 MiB (15%)
Language                                 : English
Default                                  : Yes
Forced                                   : No

温馨提示:您正在浏览的"《蜂螫》"的剧情介绍来自于[BT猫-www.btmao.cc],如果您喜欢本站,请推荐给您的朋友,谢谢您的支持! 最后更新:

影片评论:

游客 2020-01-12
低成本的影片,不过感觉上还可以看下去,不至于挺无聊的。


游客 2020-01-12
很老派的怪兽片,仿佛从8、90年代穿越而来,技术层面上合格,怪兽制作没有滥用CG,反潮流的用传统手工特效取而代之,问题出在了剧本上,太过套路,而且还没有完全把套路写到位,完全可以写得更自然些


游客 2020-01-12
结尾bgm什么鬼


收藏 留言 返回顶部